Movies Movies
River Of Darkness 2011 DVDRip xRG 
Date: 11 April 2011 | Author: TDK-TR | Views: 100    


River Of Darkness 2011 DVDRip xRG

River Of Darkness 2011 DVDRip xRG
River Of Darkness 2011 DVDRip xRG



River Of Darkness 2011 DVDRip xRG : FREE Download


General
Format : AVI
Format/Info : Audio Video Interleave
File size : 757 MiB
Duration : 1h 24mn
Overall bit rate : 1 259 Kbps

Video
ID : 0
Format : MPEG-4 Visual
Format profile : Advanced Simple@L5
Format settings, BVOP : 2
Format settings, QPel : Yes
Format settings, GMC : No warppoints
Format settings, Matrix : Default (MPEG)
Codec ID : XVID
Codec ID/Hint : XviD
Duration : 1h 24mn
Bit rate : 802 Kbps
Width : 720 pixels
Height : 304 pixels
Display aspect ratio : 2.35:1
Frame rate : 29.970 fps
Color space : YUV
Chroma subsampling : 4:2:0
Bit depth : 8 bits
Scan type : Progressive
Compression mode : Lossy
Bits/(Pixel*Frame) : 0.122
Stream size : 483 MiB (64%)
Writing library : XviD 1.2.1 (UTC 2008-12-04)

Audio
ID : 1
Format : AC-3
Format/Info : Audio Coding 3
Mode extension : CM (complete main)
Codec ID : 2000
Duration : 1h 24mn
Bit rate mode : Constant
Bit rate : 448 Kbps
Channel(s) : 6 channels
Channel positions : Front: L C R, Side: L R, LFE
Sampling rate : 48.0 KHz
Bit depth : 16 bits
Compression mode : Lossy
Stream size : 269 MiB (36%)
Alignment : Aligned on interleaves
Interleave, duration : 64 ms (1.92 video frames)
Interleave, preload duration : 192 ms
Title : VTS_01_1 T80 3_2ch 448Kbps DELAY 0ms english

Language: English
Rated: Unrated
Studio: Green Apple Entertainment
DVD Release Date: March 29, 2011

Sample Included: Yes

River Of Darkness 2011 DVDRip xRG

River Of Darkness 2011 DVDRip xRG

River Of Darkness 2011 DVDRip xRG

River Of Darkness 2011 DVDRip xRG


[Single Extraction | Working Fresh Links | No Password]

http://www.filesonic.com/file/581167351/RiverOfDarkness2011DVDRip_xRG.avi


Click Below for FREE Download

Please feel free to post your River Of Darkness 2011 DVDRip xRG Download, torrent, subtitles, free download, Watch Online, video, Movie, Game, Mp3 Download, NFO, Rapidgator, Uploaded, Mediafire, 4shared, Putlocker, crack, serial, keygen, requirements or whatever-related comments here.

Share This Post :



Please Login or Create a FREE Account to Post Comments

Information

Members of Guest cannot leave comments.