Movies Movies
Source Code 2011 TS XviD xRG 
Date: 11 April 2011 | Author: TDK-TR | Views: 101    


Source Code 2011 TS XviD xRG

Source Code 2011 TS XviD xRG
Source Code 2011 TS XviD xRG

Genre:Action | Mystery | Romance
Language:English
IMDb:http://www.imdb.com/title/tt0945513/



Source Code 2011 TS XviD xRG : FREE Download


Format : AVI
Format/Info : Audio Video Interleave
File size : 694 MiB
Duration : 1h 26mn
Overall bit rate : 1 126 Kbps


Video
ID : 0
Format : MPEG-4 Visual
Format profile : Advanced Simple@L5
Format settings, BVOP : Yes
Format settings, QPel : No
Format settings, GMC : No warppoints
Format settings, Matrix : Default (H.263)
Muxing mode : Packed bitstream
Codec ID : XVID
Codec ID/Hint : XviD
Duration : 1h 26mn
Bit rate : 988 Kbps
Width : 720 pixels
Height : 400 pixels
Display aspect ratio : 16:9
Frame rate : 25.000 fps
Color space : YUV
Chroma subsampling : 4:2:0
Bit depth : 8 bits
Scan type : Progressive
Bits/(Pixel*Frame) : 0.137
Stream size : 609 MiB (88%)
Writing library : XviD 1.2.1 (UTC 2008-12-04)

Audio
ID : 1
Format : MPEG Audio
Format version : Version 1
Format profile : Layer 3
Codec ID : 55
Codec ID/Hint : MP3
Duration : 1h 26mn
Bit rate mode : Constant
Bit rate : 128 Kbps
Channel(s) : 2 channels
Sampling rate : 44.1 KHz
Stream size : 78.9 MiB (11%)
Alignment : Split accross interleaves
Interleave, duration : 40 ms (1.00 video frame)
Interleave, preload duration : 500 ms



Plot:
An action thriller centered on a soldier who wakes up in the body of an unknown man and discovers he's part of a mission to find the bomber of a Chicago commuter train.

Source Code 2011 TS XviD xRG

Source Code 2011 TS XviD xRG

Source Code 2011 TS XviD xRG


[Single Extraction | Working Fresh Links | No Password]

http://www.filesonic.com/file/581167241/Source_Code_2011_TS_XviD_xRG.avi


Click Below for FREE Download

Please feel free to post your Source Code 2011 TS XviD xRG Download, torrent, subtitles, free download, Watch Online, video, Movie, Game, Mp3 Download, NFO, Rapidgator, Uploaded, Mediafire, 4shared, Putlocker, crack, serial, keygen, requirements or whatever-related comments here.

Share This Post :



Please Login or Create a FREE Account to Post Comments

Information

Members of Guest cannot leave comments.