Movies Movies
44 Inch Chest 2009 DVDRip Xvid-Onionmahn 
Date: 11 April 2011 | Author: JinoL | Views: 112    


44 Inch Chest 2009 DVDRip Xvid-Onionmahn

44 Inch Chest 2009 DVDRip Xvid-Onionmahn
44 Inch Chest 2009 DVDRip Xvid-Onionmahn
IMDB Info
Language: English
1hr 30min | AVI | 720x396 | 23.976 fps | 192 kb/s | 48.0 KHz | 620.37 MB
Genre: Crime | Drama


A jealous husband and his friends plot the kidnapping of his wife's lover with the intention of restoring his wounded ego.



44 Inch Chest 2009 DVDRip Xvid-Onionmahn : FREE Download

Video:

Format:   MPEG-4 Visual
Bit rate                : 744 Kbps
Width                   : 720 pixels
Height                  : 396 pixels
Display aspect ratio    : 16:9
Frame rate              : 25.000 fps
Color space             : YUV
Chroma subsampling      : 4:2:0
Bit depth               : 8 bits
Scan type               : Progressive
Compression mode        : Lossy
Bits/(Pixel*Frame)      : 0.104
Stream size             : 482 MiB (79%)
Writing library         : XviD 1.2.1 (UTC 2008-12-04)


Audio:

ID                              : 1
Format                          : AC-3
Format/Info                     : Audio Coding 3
Mode extension                  : CM (complete main)
Codec ID                        : 2000
Duration                        : 1h 30mn
Bit rate mode                   : Constant
Bit rate                        : 192 Kbps
Channel(s)                      : 2 channels
Channel positions               : Front: L R
Sampling rate                   : 48.0 KHz
Bit depth                       : 16 bits
Compression mode                : Lossy
Stream size                     : 124 MiB (20%)
Alignment                       : Aligned on interleaves
Interleave, duration            : 32 ms (0.80 video frame)
 
Screenshot
44 Inch Chest 2009 DVDRip Xvid-Onionmahn


Director: Malcolm Venville
Stars: Ray Winstone, Ian McShane and John Hurt

Download - Filesonic
http://www.filesonic.com/file/581272671/44.INCH.CHEST.2009.Onionmahn.PURE.RG.part1.rar
http://www.filesonic.com/file/581269511/44.INCH.CHEST.2009.Onionmahn.PURE.RG.part2.rar

Mirror:
Download - FileServe   
http://www.fileserve.com/file/JRRextX/44.INCH.CHEST.2009.Onionmahn.PURE.RG.part1.rar
http://www.fileserve.com/file/ZCtcCUs/44.INCH.CHEST.2009.Onionmahn.PURE.RG.part2.rar

Mirror:
Download - Uploading
http://uploading.com/files/a4f18c8c/44.INCH.CHEST.2009.Onionmahn.PURE.RG.part1.rar/
http://uploading.com/files/5d41a243/44.INCH.CHEST.2009.Onionmahn.PURE.RG.part2.rar/

Add 3% Recovery - All links are interchangeable

Click Below for FREE Download

Please feel free to post your 44 Inch Chest 2009 DVDRip Xvid-Onionmahn Download, torrent, subtitles, free download, Watch Online, video, Movie, Game, Mp3 Download, NFO, Rapidgator, Uploaded, Mediafire, 4shared, Putlocker, crack, serial, keygen, requirements or whatever-related comments here.

Share This Post :



Please Login or Create a FREE Account to Post Comments

Information

Members of Guest cannot leave comments.